<?xml version="1.0" standalone="no"?>
<!DOCTYPE svg PUBLIC "-//W3C//DTD SVG 1.1//EN" "http://www.w3.org/Graphics/SVG/1.1/DTD/svg11.dtd" >
<svg xmlns="http://www.w3.org/2000/svg">
<metadata>Generated by IcoMoon</metadata>
<defs>
<font id="icomoon" horiz-adv-x="1024">
<font-face units-per-em="1024" ascent="960" descent="-64" />
<missing-glyph horiz-adv-x="1024" />
<glyph unicode="&#x20;" horiz-adv-x="512" d="" />
<glyph unicode="&#xe900;" glyph-name="mail" d="M263.022 785.067h497.954c22.608 0.001 41.859 0.001 57.664-1.29 16.605-1.356 32.758-4.328 48.202-12.196 23.28-11.863 42.208-30.792 54.074-54.074 7.866-15.442 10.838-31.596 12.195-48.2 1.142-13.972 1.274-30.638 1.286-49.934 0.010-0.432 0.010-0.861 0.003-1.293 0-2.115 0-4.259 0-6.438v-327.283c0-22.611 0-41.859-1.29-57.664-1.357-16.605-4.33-32.758-12.195-48.202-11.866-23.283-30.794-42.211-54.074-54.074-15.443-7.869-31.597-10.838-48.202-12.195-15.805-1.293-35.053-1.293-57.661-1.29h-497.959c-22.607-0.003-41.857-0.003-57.661 1.29-16.604 1.357-32.757 4.326-48.2 12.195-23.282 11.862-42.211 30.79-54.074 54.074-7.868 15.443-10.839 31.597-12.196 48.202-1.291 15.805-1.291 35.053-1.29 57.661v327.29c0 2.176 0 4.32 0.001 6.435-0.007 0.432-0.007 0.861 0.001 1.293 0.015 19.296 0.147 35.962 1.288 49.934 1.356 16.604 4.328 32.758 12.196 48.2 11.863 23.282 30.792 42.211 54.074 54.074 15.443 7.868 31.596 10.839 48.2 12.196 15.805 1.292 35.055 1.291 57.663 1.29zM166.4 546.915v-261.050c0-24.528 0.030-40.614 1.035-52.918 0.969-11.856 2.648-16.778 4.080-19.587 4.5-8.832 11.68-16.013 20.511-20.512 2.811-1.43 7.732-3.11 19.588-4.080 12.303-1.005 28.39-1.034 52.92-1.034h494.932c24.531 0 40.618 0.029 52.922 1.034 11.853 0.97 16.774 2.65 19.587 4.080 8.832 4.499 16.010 11.68 20.509 20.512 1.434 2.81 3.114 7.731 4.080 19.587 1.008 12.304 1.037 28.39 1.037 52.918v261.050l-172.829-115.219c-2.064-1.376-4.099-2.733-6.106-4.074-48.819-32.57-81.6-54.442-117.946-63.152-32.026-7.674-65.414-7.674-97.44 0-36.346 8.71-69.126 30.582-117.946 63.152-2.006 1.341-4.042 2.698-6.106 4.074l-172.829 115.219zM857.488 639.142c-0.125 9.555-0.381 17.282-0.925 23.911-0.966 11.855-2.646 16.776-4.080 19.588-4.499 8.831-11.677 16.011-20.509 20.51-2.813 1.433-7.734 3.112-19.587 4.081-12.304 1.005-28.39 1.035-52.922 1.035h-494.932c-24.529 0-40.617-0.030-52.92-1.035-11.855-0.969-16.776-2.648-19.588-4.081-8.831-4.5-16.011-11.679-20.511-20.51-1.432-2.812-3.112-7.733-4.080-19.588-0.542-6.629-0.8-14.356-0.923-23.911l215.319-143.546c57.251-38.166 78.019-51.328 99.347-56.438 20.262-4.858 41.382-4.858 61.645 0 21.328 5.11 42.096 18.272 99.347 56.438l215.318 143.546z" />
<glyph unicode="&#xe901;" glyph-name="arrow-right" d="M527.514 731.153c14.996 14.996 39.311 14.996 54.308 0l256-256c7.199-7.201 11.244-16.969 11.244-27.153s-4.045-19.953-11.244-27.151l-256-256c-14.996-14.996-39.311-14.996-54.308 0s-14.996 39.306 0 54.303l190.449 190.449h-504.629c-21.208 0-38.4 17.193-38.4 38.4s17.192 38.4 38.4 38.4h504.629l-190.449 190.447c-14.996 14.996-14.996 39.31 0 54.306z" />
<glyph unicode="&#xe902;" glyph-name="calendar" d="M298.666 870.4c21.208 0 38.4-17.192 38.4-38.4v-46.934h349.869v46.934c0 21.208 17.193 38.4 38.4 38.4s38.4-17.192 38.4-38.4v-46.934c21.417-0.002 39.747-0.051 54.907-1.29 16.604-1.357 32.758-4.328 48.2-12.196 23.281-11.863 42.209-30.792 54.072-54.073 7.869-15.442 10.839-31.596 12.196-48.2 1.29-15.805 1.29-35.056 1.29-57.665v-412.618c0-22.61 0-41.861-1.29-57.667-1.357-16.604-4.326-32.758-12.196-48.2-11.863-23.281-30.792-42.209-54.072-54.072-15.442-7.869-31.596-10.839-48.2-12.196-15.805-1.29-35.057-1.29-57.667-1.29h-497.951c-22.608 0-41.859 0-57.665 1.29-16.604 1.357-32.758 4.326-48.2 12.196-23.282 11.863-42.21 30.792-54.073 54.072-7.868 15.442-10.839 31.596-12.196 48.2-1.291 15.805-1.291 35.057-1.29 57.667v412.619c-0.001 22.608-0.001 41.858 1.29 57.663 1.357 16.604 4.327 32.758 12.196 48.2 11.863 23.282 30.792 42.211 54.073 54.073 15.442 7.868 31.596 10.84 48.2 12.196 15.159 1.239 33.487 1.288 54.907 1.29v46.934c0 21.208 17.192 38.4 38.4 38.4zM264.534 708.266c-24.529 0-40.617-0.030-52.92-1.035-11.855-0.969-16.776-2.648-19.588-4.081-8.831-4.499-16.011-11.679-20.511-20.511-1.433-2.811-3.112-7.732-4.080-19.587-1.006-12.303-1.035-28.391-1.035-52.92v-38.4h691.2v38.4c0 24.529-0.031 40.616-1.034 52.92-0.968 11.855-2.647 16.776-4.081 19.587-4.5 8.831-11.679 16.011-20.511 20.511-2.811 1.433-7.731 3.112-19.589 4.081-12.303 1.005-28.39 1.035-52.92 1.035h-494.931zM857.6 494.934h-691.2v-294.398c0-24.53 0.030-40.617 1.035-52.92 0.968-11.858 2.648-16.778 4.080-19.589 4.5-8.832 11.68-16.010 20.511-20.511 2.811-1.434 7.733-3.113 19.588-4.081 12.303-1.004 28.39-1.034 52.92-1.034h494.931c24.53 0 40.617 0.031 52.92 1.034 11.858 0.968 16.778 2.647 19.589 4.081 8.832 4.5 16.010 11.679 20.511 20.511 1.434 2.811 3.113 7.731 4.081 19.589 1.004 12.303 1.034 28.39 1.034 52.92v294.398z" />
<glyph unicode="&#xe903;" glyph-name="arrow-light-right" d="M660.038 641.294c12.499 12.497 32.758 12.497 45.254 0l170.669-170.667c12.496-12.496 12.496-32.758 0-45.254l-170.669-170.666c-12.496-12.499-32.755-12.499-45.254 0-12.496 12.496-12.496 32.755 0 45.254l116.042 116.038h-605.413c-17.673 0-32 14.326-32 32s14.327 32 32 32h605.413l-116.042 116.038c-12.496 12.496-12.496 32.758 0 45.256z" />
<glyph unicode="&#xe904;" glyph-name="chevron-right" d="M353.83 734.17c16.663 16.662 43.677 16.662 60.34 0l256-256c16.661-16.661 16.661-43.678 0-60.339l-256-256c-16.663-16.661-43.677-16.661-60.34 0s-16.662 43.678 0 60.339l225.831 225.83-225.831 225.83c-16.662 16.663-16.662 43.677 0 60.34z" />
<glyph unicode="&#xe905;" glyph-name="chevron-left" d="M670.17 734.17c-16.661 16.662-43.678 16.662-60.339 0l-256-256c-8.001-8-12.497-18.854-12.497-30.17s4.495-22.17 12.497-30.17l256-256c16.661-16.661 43.678-16.661 60.339 0s16.661 43.678 0 60.339l-225.83 225.83 225.83 225.83c16.661 16.663 16.661 43.677 0 60.34z" />
<glyph unicode="&#xe906;" glyph-name="arrow-down" d="M512 778.667c17.674 0 32-14.327 32-32v-520.078l201.373 201.373c12.496 12.496 32.758 12.496 45.254 0s12.496-32.758 0-45.254l-256-256c-12.496-12.499-32.758-12.499-45.254 0l-256 256c-12.497 12.496-12.497 32.758 0 45.254s32.758 12.496 45.255 0l201.372-201.373v520.078c0 17.673 14.326 32 32 32z" />
<glyph unicode="&#xe907;" glyph-name="headphone" d="M85.333 448c0 235.642 191.025 426.667 426.667 426.667 235.639 0 426.667-191.025 426.667-426.667v-149.423c0-0.934 0-1.873 0-2.816v-71.761c0-1.489 0-2.957 0-4.403 0-2.82 0.004-5.559 0-8.226v-19.371c0-1.941-0.128-3.849-0.38-5.717-0.401-10.155-1.225-19.162-2.901-27.58-13.466-67.699-66.389-120.623-134.089-134.089-16.585-3.302-35.452-3.294-60.894-3.281-1.446 0-2.914 0-4.403 0-0.704 0-1.425 0-2.163-0.004-7.514-0.017-16.7-0.038-25.152 1.643-33.852 6.733-60.314 33.195-67.046 67.046-1.681 8.452-1.66 17.638-1.643 25.152 0.004 0.738 0.004 1.459 0.004 2.163v178.428c0 10.769-0.004 21.257 0.721 30.135 0.798 9.754 2.679 21.265 8.58 32.845 8.179 16.055 21.235 29.111 37.291 37.291 11.58 5.901 23.091 7.782 32.845 8.58 8.879 0.725 19.366 0.721 30.135 0.721h79.522c8.469 0 16.764 0 24.239-0.35v43.017c0 188.513-152.819 341.333-341.333 341.333s-341.334-152.82-341.334-341.333v-43.017c7.476 0.35 15.771 0.35 24.24 0.35h79.52c10.769 0 21.256 0.004 30.138-0.721 9.754-0.798 21.262-2.679 32.843-8.58 16.057-8.179 29.111-21.235 37.292-37.291 5.9-11.58 7.781-23.091 8.578-32.845 0.726-8.879 0.724-19.366 0.723-30.135v-178.428c0-0.704 0.002-1.425 0.003-2.163 0.017-7.514 0.038-16.7-1.643-25.152-6.733-33.852-33.195-60.314-67.046-67.046-8.452-1.681-17.636-1.66-25.151-1.643-0.738 0.004-1.46 0.004-2.163 0.004-1.489 0-2.956 0-4.402 0-25.443-0.013-44.31-0.021-60.893 3.281-67.702 13.466-120.625 66.389-134.092 134.089-1.674 8.418-2.496 17.425-2.899 27.58-0.25 1.869-0.38 3.776-0.38 5.717v19.349c-0.003 2.671-0.002 5.419-0.001 8.247 0 1.446 0.001 2.914 0.001 4.403v71.761c0 0.905 0 1.813 0 2.714v149.525zM170.666 224c0-31.782 0.207-41.442 1.64-48.649 6.734-33.852 33.195-60.314 67.046-67.046 7.204-1.434 16.865-1.638 48.648-1.638 5.246 0 8.113 0.004 10.207 0.077 0.133 0.004 0.256 0.009 0.368 0.013 0.005 0.115 0.009 0.235 0.014 0.371 0.072 2.095 0.077 4.962 0.077 10.206v177.067c0 12.651-0.033 19.575-0.439 24.55-0.016 0.196-0.032 0.384-0.049 0.563-0.177 0.013-0.365 0.030-0.563 0.047-4.975 0.405-11.897 0.439-24.549 0.439h-76.8c-12.652 0-19.575-0.034-24.549-0.439-0.198-0.017-0.386-0.034-0.563-0.047-0.016-0.179-0.032-0.367-0.049-0.563-0.407-4.975-0.44-11.9-0.44-24.55v-70.4zM853.333 224v70.4c0 12.651-0.034 19.575-0.439 24.55-0.017 0.196-0.034 0.384-0.051 0.563-0.175 0.013-0.363 0.030-0.559 0.047-4.975 0.405-11.9 0.439-24.55 0.439h-76.8c-12.651 0-19.575-0.034-24.55-0.439-0.196-0.017-0.384-0.034-0.563-0.047-0.013-0.179-0.030-0.367-0.047-0.563-0.405-4.975-0.439-11.9-0.439-24.55v-177.067c0-5.244 0.004-8.111 0.077-10.206 0.004-0.137 0.009-0.256 0.013-0.371 0.115-0.004 0.235-0.009 0.371-0.013 2.091-0.073 4.958-0.077 10.206-0.077 31.782 0 41.442 0.205 48.649 1.638 33.852 6.733 60.314 33.195 67.046 67.046 1.434 7.206 1.638 16.866 1.638 48.649z" />
<glyph unicode="&#xe908;" glyph-name="chevron-down" d="M486.657 294.656c13.997-13.998 36.689-13.998 50.687 0l256 256.001c13.993 13.997 13.993 36.689 0 50.685-13.998 13.997-36.69 13.997-50.688 0l-230.657-230.659-230.658 230.659c-13.996 13.997-36.689 13.997-50.685 0s-13.996-36.689 0-50.685l256-256.001z" />
<glyph unicode="&#xe909;" glyph-name="close" d="M509.552 906.667h4.896c98.493 0.001 175.677 0.001 235.901-8.096 61.642-8.288 110.282-25.582 148.461-63.761s55.475-86.82 63.76-148.462c8.099-60.224 8.099-137.411 8.096-235.9v-4.896c0.003-98.49 0.003-175.677-8.096-235.901-8.285-61.642-25.581-110.282-63.76-148.461s-86.819-55.475-148.461-63.76c-60.224-8.099-137.408-8.099-235.901-8.096h-4.896c-98.49-0.003-175.677-0.003-235.9 8.096-61.642 8.285-110.283 25.581-148.461 63.76s-55.473 86.819-63.761 148.461c-8.097 60.224-8.097 137.408-8.096 235.901v4.896c-0.001 98.493-0.001 175.677 8.096 235.9 8.287 61.642 25.582 110.283 63.761 148.462s86.82 55.473 148.461 63.761c60.224 8.097 137.408 8.096 235.9 8.096zM282.18 835.141c-54.545-7.333-87.429-21.281-111.735-45.586s-38.253-57.189-45.586-111.734c-7.457-55.466-7.525-128.349-7.525-229.821s0.068-174.355 7.525-229.821c7.333-54.544 21.281-87.43 45.586-111.734s57.189-38.253 111.735-45.587c55.465-7.456 128.348-7.523 229.82-7.523s174.355 0.067 229.821 7.523c54.544 7.334 87.43 21.283 111.734 45.587 24.307 24.304 38.253 57.19 45.587 111.734 7.456 55.466 7.523 128.349 7.523 229.821s-0.067 174.355-7.523 229.821c-7.334 54.545-21.28 87.429-45.587 111.734-24.304 24.306-57.19 38.253-111.734 45.586-55.466 7.457-128.349 7.525-229.821 7.525s-174.355-0.068-229.82-7.525zM382.704 577.293c12.499 12.499 32.758 12.499 45.254 0l84.042-84.038 84.038 84.038c12.496 12.496 32.758 12.496 45.254 0s12.496-32.758 0-45.254l-84.038-84.038 84.038-84.038c12.496-12.496 12.496-32.758 0-45.254s-32.758-12.496-45.254 0l-84.038 84.038-84.038-84.038c-12.496-12.499-32.758-12.499-45.254 0-12.499 12.496-12.499 32.755 0 45.254l84.038 84.038-84.042 84.038c-12.496 12.496-12.496 32.758 0 45.254z" />
<glyph unicode="&#xe90a;" glyph-name="users" d="M341.333 752.762c-50.495 0-91.429-40.934-91.429-91.429s40.934-91.43 91.429-91.43c50.493 0 91.427 40.935 91.427 91.43s-40.934 91.429-91.427 91.429zM176.762 661.333c0 90.891 73.681 164.571 164.571 164.571s164.57-73.681 164.57-164.571c0-90.888-73.68-164.573-164.57-164.573s-164.571 73.684-164.571 164.573zM682.668 624.762c-26.931 0-48.764-21.831-48.764-48.762s21.833-48.761 48.764-48.761c26.928 0 48.761 21.829 48.761 48.761s-21.833 48.762-48.761 48.762zM560.761 576c0 67.326 54.579 121.905 121.907 121.905 67.324 0 121.904-54.578 121.904-121.905 0-67.324-54.579-121.904-121.904-121.904-67.328 0-121.907 54.579-121.907 121.904zM341.333 368.761c-97.623 0-176.762-79.137-176.762-176.761v-48.761h353.525v48.761c0 29.316-7.139 56.96-19.767 81.298-1.017 1.584-1.902 3.233-2.655 4.926-30.245 54.020-88.027 90.536-154.341 90.536zM535.859 348.895c41.026 31.51 91.717 50.344 146.809 50.344 137.125 0 249.904-103.15 249.904-249.907v-42.664c0-20.198-16.373-36.571-36.571-36.571h-768c-20.198 0-36.571 16.373-36.571 36.571v85.332c0 138.017 111.886 249.904 249.905 249.904 78.595 0 148.717-36.283 194.526-93.008zM573.305 285.14c11.568-28.785 17.935-60.219 17.935-93.14v-48.761h268.189v6.093c0 104.598-78.245 176.764-176.761 176.764-41.019 0-79.049-15.104-109.363-40.956z" />
<glyph unicode="&#xe90b;" glyph-name="chevron-up" d="M539.151 603.153c-14.996 14.996-39.308 14.996-54.304 0l-256-256.002c-14.996-14.996-14.996-39.306 0-54.303s39.31-14.996 54.306 0l228.847 228.846 228.849-228.846c14.996-14.996 39.306-14.996 54.303 0s14.996 39.306 0 54.303l-256 256.002z" />
<glyph unicode="&#xe90c;" glyph-name="check" horiz-adv-x="1434" d="M1403.607 930.008c39.987-39.99 39.987-104.826 0-144.816l-819.199-819.2c-19.204-19.203-45.25-29.992-72.408-29.992s-53.204 10.789-72.408 29.992l-409.6 409.6c-39.99 39.99-39.99 104.826 0 144.816 39.99 39.989 104.826 39.989 144.816 0l337.192-337.193 746.793 746.793c39.987 39.99 104.827 39.99 144.814 0z" />
<glyph unicode="&#xe90d;" glyph-name="arrow-up" d="M489.373 769.294c12.496 12.497 32.758 12.497 45.254 0l256-256.001c12.496-12.496 12.496-32.755 0-45.254-12.496-12.496-32.758-12.496-45.254 0l-201.373 201.373v-520.077c0-17.674-14.326-32-32-32s-32 14.326-32 32v520.077l-201.372-201.373c-12.497-12.496-32.758-12.496-45.255 0-12.497 12.499-12.497 32.758 0 45.254l256 256.001z" />
<glyph unicode="&#xe90e;" glyph-name="play" d="M710.753 563.78c61.425-38.393 92.14-57.589 102.676-82.167 9.196-21.465 9.196-45.763 0-67.226-10.537-24.576-41.252-43.776-102.676-82.166l-288.524-180.326c-68.179-42.614-102.268-63.918-130.4-61.66-24.522 1.971-47 14.433-61.668 34.181-16.828 22.656-16.828 62.858-16.828 143.258v360.653c0 80.4 0 120.6 16.828 143.257 14.668 19.749 37.146 32.208 61.668 34.179 28.132 2.262 62.221-19.044 130.4-61.656l288.524-180.327z" />
<glyph unicode="&#xe90f;" glyph-name="swatchbook" d="M263.023 870.4h71.288c22.608 0.001 41.859 0.001 57.664-1.29 16.605-1.357 32.758-4.328 48.198-12.196 23.283-11.863 42.211-30.791 54.074-54.073 7.869-15.443 10.842-31.596 12.195-48.2 1.293-15.805 1.293-35.055 1.293-57.663v-0.246l32.486 32.488c15.984 15.986 29.597 29.599 41.686 39.861 12.701 10.782 26.224 20.103 42.707 25.459 24.851 8.075 51.619 8.075 76.47 0 16.483-5.356 30.006-14.677 42.707-25.459 12.090-10.263 25.699-23.876 41.686-39.862l50.403-50.405c15.99-15.987 29.603-29.599 39.866-41.69 10.781-12.698 20.102-26.221 25.459-42.704 8.074-24.851 8.074-51.622 0-76.474-5.357-16.483-14.678-30.006-25.459-42.704-9.040-10.65-20.678-22.48-34.25-36.070 8.624-1.91 17.085-4.717 25.344-8.925 23.28-11.862 42.208-30.79 54.074-54.074 7.866-15.44 10.838-31.594 12.195-48.198 1.29-15.805 1.29-35.056 1.29-57.664v-71.286c0-22.608 0-41.859-1.29-57.664-1.357-16.605-4.33-32.758-12.195-48.202-11.866-23.28-30.794-42.208-54.074-54.074-15.443-7.866-31.597-10.838-48.202-12.195-15.805-1.29-35.056-1.29-57.664-1.29h-419.642c-0.099 0-0.198 0-0.298 0-2.208 0-4.451 0-6.726 0h-71.287c-22.608 0-41.859 0-57.664 1.29-16.604 1.357-32.757 4.33-48.2 12.195-23.282 11.866-42.211 30.794-54.073 54.074-7.868 15.443-10.839 31.597-12.196 48.202-1.291 15.805-1.291 35.056-1.29 57.664v497.953c-0.001 22.608-0.001 41.858 1.29 57.663 1.357 16.604 4.328 32.757 12.196 48.2 11.863 23.282 30.791 42.211 54.073 54.073 15.443 7.868 31.596 10.839 48.2 12.196 15.805 1.291 35.056 1.291 57.663 1.29zM504.733 102.4h254.733c24.531 0 40.618 0.029 52.922 1.034 11.853 0.97 16.774 2.65 19.587 4.083 8.832 4.499 16.010 11.677 20.509 20.509 1.434 2.813 3.114 7.734 4.083 19.587 1.005 12.304 1.034 28.39 1.034 52.922v68.266c0 24.528-0.029 40.618-1.034 52.918-0.97 11.856-2.65 16.778-4.083 19.59-4.499 8.829-11.677 16.010-20.509 20.509-2.813 1.434-7.734 3.114-19.587 4.080-10.586 0.864-23.971 1.008-43.126 1.030l-264.528-264.528zM507.734 214.013l272.778 272.778c17.344 17.347 28.698 28.742 36.688 38.154 7.696 9.069 9.99 13.734 10.963 16.736 3.066 9.427 3.066 19.581 0 29.005-0.973 3.002-3.267 7.67-10.963 16.736-7.99 9.411-19.344 20.806-36.688 38.154l-48.272 48.271c-17.344 17.345-28.742 28.699-38.154 36.688-9.066 7.698-13.734 9.99-16.733 10.965-9.427 3.063-19.581 3.063-29.008 0-3.002-0.975-7.667-3.268-16.736-10.965-9.411-7.989-20.806-19.343-38.15-36.688l-85.725-85.724v-374.109zM211.613 792.565c-11.855-0.969-16.776-2.648-19.588-4.080-8.831-4.5-16.011-11.68-20.511-20.511-1.432-2.812-3.112-7.733-4.080-19.588-1.005-12.303-1.035-28.391-1.035-52.92v-494.932c0-24.531 0.030-40.618 1.035-52.922 0.969-11.853 2.648-16.774 4.080-19.587 4.5-8.832 11.68-16.010 20.511-20.509 2.812-1.434 7.733-3.114 19.588-4.083 12.303-1.005 28.391-1.034 52.92-1.034h68.267c24.528 0 40.618 0.029 52.918 1.034 11.856 0.97 16.778 2.65 19.587 4.083 8.832 4.499 16.013 11.677 20.512 20.509 0.154 0.301 0.301 0.611 0.445 0.934 1.386 3.101 2.909 8.47 3.77 20.39 0.877 12.186 0.902 27.904 0.902 51.184v494.932c0 24.529-0.032 40.617-1.037 52.92-0.97 11.855-2.646 16.776-4.080 19.588-4.499 8.831-11.68 16.011-20.512 20.511-2.81 1.432-7.731 3.112-19.587 4.080-12.301 1.005-28.39 1.035-52.918 1.035h-68.267c-24.529 0-40.617-0.030-52.92-1.035zM260.267 234.666c0 21.21 17.192 38.4 38.4 38.4h0.427c21.208 0 38.401-17.19 38.401-38.4 0-21.206-17.194-38.4-38.401-38.4h-0.427c-21.208 0-38.4 17.194-38.4 38.4z" />
<glyph unicode="&#xe910;" glyph-name="objects-bottom" d="M280.33 870.4c0.423 0 0.846 0 1.27 0h76.8c0.426 0 0.848 0 1.27 0 10.851 0.001 21.178 0.002 29.882-0.709 9.488-0.775 20.371-2.584 31.251-8.127 15.254-7.772 27.654-20.174 35.427-35.427 5.542-10.879 7.354-21.764 8.128-31.253 0.71-8.703 0.71-19.030 0.707-29.882v-463.338c0.003-10.851 0.003-21.178-0.707-29.882-0.774-9.488-2.586-20.374-8.128-31.251-7.773-15.254-20.173-27.658-35.427-35.427-10.88-5.546-21.763-7.354-31.251-8.128-8.704-0.71-19.030-0.71-29.882-0.71h-79.342c-10.85 0-21.177 0-29.879 0.71-9.489 0.774-20.374 2.582-31.253 8.128-15.253 7.77-27.655 20.173-35.427 35.427-5.543 10.877-7.352 21.763-8.127 31.251-0.711 8.704-0.71 19.030-0.709 29.882v462.069c0 0.424 0 0.847 0 1.27-0.001 10.851-0.002 21.179 0.709 29.881 0.775 9.49 2.584 20.374 8.127 31.253 7.772 15.253 20.174 27.655 35.427 35.427 10.879 5.543 21.764 7.352 31.253 8.127 8.702 0.711 19.030 0.71 29.881 0.709zM253.46 792.762c-0.339-0.251-0.638-0.55-0.889-0.889-0.101-0.575-0.251-1.605-0.384-3.243-0.424-5.188-0.454-12.315-0.454-24.897v-460.799c0-12.582 0.030-19.709 0.454-24.896 0.134-1.638 0.283-2.669 0.384-3.245 0.251-0.339 0.55-0.637 0.889-0.89 0.575-0.099 1.605-0.25 3.243-0.384 5.188-0.422 12.315-0.454 24.896-0.454h76.8c12.582 0 19.709 0.032 24.896 0.454 1.638 0.134 2.669 0.285 3.245 0.384 0.336 0.253 0.637 0.55 0.886 0.89 0.102 0.576 0.253 1.606 0.387 3.245 0.422 5.187 0.451 12.314 0.451 24.896v460.799c0 12.581-0.029 19.708-0.451 24.896-0.134 1.638-0.285 2.668-0.387 3.243-0.25 0.339-0.55 0.638-0.886 0.889-0.576 0.101-1.606 0.251-3.245 0.384-5.187 0.424-12.314 0.454-24.896 0.454h-76.8c-12.581 0-19.708-0.030-24.896-0.454-1.638-0.134-2.668-0.283-3.243-0.384zM664.33 614.4h79.341c10.851 0 21.178 0.003 29.882-0.71 9.488-0.774 20.371-2.582 31.251-8.125 15.254-7.773 27.654-20.173 35.427-35.427 5.542-10.88 7.354-21.763 8.128-31.254 0.71-8.701 0.71-19.030 0.707-29.882v-207.338c0.003-10.851 0.003-21.178-0.707-29.882-0.774-9.488-2.586-20.374-8.128-31.251-7.773-15.254-20.173-27.658-35.427-35.427-10.88-5.546-21.763-7.354-31.251-8.128-8.704-0.71-19.030-0.71-29.882-0.71h-79.341c-10.851 0-21.178 0-29.878 0.71-9.491 0.774-20.374 2.582-31.254 8.128-15.254 7.77-27.654 20.173-35.427 35.427-5.542 10.877-7.354 21.763-8.128 31.251-0.71 8.704-0.71 19.030-0.707 29.882v207.341c-0.003 10.848-0.003 21.178 0.707 29.878 0.774 9.491 2.586 20.374 8.128 31.254 7.773 15.254 20.173 27.654 35.427 35.427 10.88 5.542 21.763 7.35 31.254 8.125 8.701 0.714 19.027 0.71 29.878 0.71zM637.459 536.762c-0.336-0.25-0.637-0.55-0.886-0.89-0.102-0.573-0.253-1.603-0.387-3.242-0.422-5.19-0.451-12.317-0.451-24.896v-204.8c0-12.582 0.029-19.709 0.454-24.896 0.131-1.638 0.282-2.669 0.384-3.245 0.25-0.339 0.55-0.637 0.886-0.89 0.576-0.099 1.606-0.25 3.245-0.384 5.187-0.422 12.314-0.454 24.896-0.454h76.8c12.582 0 19.709 0.032 24.896 0.454 1.638 0.134 2.669 0.285 3.245 0.384 0.336 0.253 0.637 0.55 0.886 0.89 0.102 0.576 0.253 1.606 0.387 3.245 0.422 5.187 0.451 12.314 0.451 24.896v204.8c0 12.579-0.029 19.706-0.451 24.896-0.134 1.638-0.285 2.669-0.387 3.242-0.25 0.339-0.55 0.64-0.886 0.89-0.576 0.102-1.606 0.25-3.245 0.384-5.187 0.426-12.314 0.454-24.896 0.454h-76.8c-12.582 0-19.709-0.029-24.896-0.454-1.638-0.134-2.669-0.282-3.245-0.384zM89.6 64c0 21.206 17.192 38.4 38.4 38.4h768c21.206 0 38.4-17.194 38.4-38.4s-17.194-38.4-38.4-38.4h-768c-21.208 0-38.4 17.194-38.4 38.4z" />
<glyph unicode="&#xe911;" glyph-name="compass" d="M512 870.4c-21.206 0-38.4-17.192-38.4-38.4v-9.404c-61.482-16.834-106.666-73.105-106.666-139.93 0-38.099 14.701-72.747 38.669-98.603l-147.336-237.373c-37.79 24.026-71.951 53.267-101.477 86.72-14.034 15.901-38.3 17.414-54.201 3.379-15.9-14.032-17.413-38.301-3.38-54.198 34.451-39.034 74.369-73.152 118.556-101.152l-122.393-197.19c-11.184-18.019-5.644-41.693 12.375-52.877s41.693-5.642 52.877 12.378l124.853 201.152c69.084-31.238 145.778-48.637 226.52-48.637s157.437 17.398 226.522 48.637l124.851-201.152c11.184-18.019 34.858-23.562 52.877-12.378s23.562 34.858 12.378 52.877l-122.394 197.19c44.189 28 84.106 62.118 118.557 101.152 14.032 15.898 12.522 40.166-3.379 54.198-15.901 14.035-40.166 12.522-54.202-3.379-29.526-33.453-63.686-62.694-101.478-86.72l-147.334 237.373c23.968 25.856 38.669 60.503 38.669 98.603 0 66.825-45.184 123.096-106.666 139.93v9.404c0 21.208-17.194 38.4-38.4 38.4zM553.162 543.533l144.448-232.72c-56.995-24.304-119.728-37.747-185.61-37.747s-128.614 13.443-185.61 37.747l144.448 232.72c13.066-3.862 26.886-5.933 41.162-5.933s28.096 2.070 41.162 5.933zM512 750.933c37.702 0 68.266-30.564 68.266-68.267 0-24.444-12.819-45.924-32.288-58.033-10.422-6.483-22.704-10.234-35.978-10.234s-25.555 3.75-35.978 10.234c-19.469 12.109-32.288 33.589-32.288 58.033 0 37.703 30.563 68.267 68.266 68.267z" />
<glyph unicode="&#xe912;" glyph-name="building" d="M194.997 870.4c0.423 0 0.846 0 1.27 0h334.069c10.851 0.001 21.178 0.002 29.882-0.709 9.488-0.775 20.374-2.584 31.251-8.127 15.254-7.772 27.658-20.174 35.43-35.427 5.542-10.879 7.35-21.764 8.125-31.253 0.71-8.702 0.71-19.029 0.71-29.88v-701.004c0-21.206-17.194-38.4-38.4-38.4h-469.334c-21.208 0-38.4 17.194-38.4 38.4v699.733c0 0.424 0 0.847 0 1.27-0.001 10.851-0.002 21.178 0.709 29.881 0.775 9.489 2.584 20.374 8.127 31.253 7.772 15.253 20.174 27.655 35.427 35.427 10.879 5.543 21.764 7.352 31.253 8.127 8.702 0.711 19.029 0.71 29.88 0.709zM168.127 792.762c-0.339-0.251-0.638-0.55-0.889-0.889-0.101-0.575-0.251-1.605-0.384-3.243-0.424-5.188-0.454-12.315-0.454-24.896v-661.333h72.533v89.6c0 68.336 55.397 123.734 123.732 123.734s123.734-55.398 123.734-123.734v-89.6h72.534v661.333c0 12.581-0.032 19.708-0.454 24.896-0.134 1.638-0.285 2.668-0.384 3.243-0.253 0.339-0.55 0.638-0.89 0.889-0.576 0.101-1.606 0.251-3.245 0.384-5.187 0.424-12.314 0.454-24.896 0.454h-332.799c-12.581 0-19.708-0.030-24.896-0.454-1.638-0.134-2.668-0.283-3.243-0.384zM409.6 102.4v89.6c0 25.92-21.011 46.934-46.934 46.934-25.92 0-46.932-21.014-46.932-46.934v-89.6h93.867zM725.334 870.4c21.206 0 38.4-17.192 38.4-38.4v-46.933h132.266c21.206 0 38.4-17.192 38.4-38.4v-213.332c0-21.21-17.194-38.4-38.4-38.4h-132.266v-430.934c0-21.206-17.194-38.4-38.4-38.4-21.21 0-38.4 17.194-38.4 38.4v768c0 21.208 17.19 38.4 38.4 38.4zM763.734 571.734h93.866v136.532h-93.866v-136.532zM217.6 661.333c0 21.208 17.192 38.4 38.4 38.4h42.667c21.208 0 38.399-17.192 38.399-38.4s-17.191-38.399-38.399-38.399h-42.667c-21.208 0-38.4 17.191-38.4 38.399zM388.266 661.333c0 21.208 17.194 38.4 38.4 38.4h42.669c21.206 0 38.4-17.192 38.4-38.4s-17.194-38.399-38.4-38.399h-42.669c-21.206 0-38.4 17.191-38.4 38.399zM217.6 533.334c0 21.206 17.192 38.4 38.4 38.4h42.667c21.208 0 38.399-17.194 38.399-38.4 0-21.21-17.191-38.4-38.399-38.4h-42.667c-21.208 0-38.4 17.19-38.4 38.4zM388.266 533.334c0 21.206 17.194 38.4 38.4 38.4h42.669c21.206 0 38.4-17.194 38.4-38.4 0-21.21-17.194-38.4-38.4-38.4h-42.669c-21.206 0-38.4 17.19-38.4 38.4zM217.6 405.334c0 21.206 17.192 38.4 38.4 38.4h42.667c21.208 0 38.399-17.194 38.399-38.4 0-21.21-17.191-38.4-38.399-38.4h-42.667c-21.208 0-38.4 17.19-38.4 38.4zM388.266 405.334c0 21.206 17.194 38.4 38.4 38.4h42.669c21.206 0 38.4-17.194 38.4-38.4 0-21.21-17.194-38.4-38.4-38.4h-42.669c-21.206 0-38.4 17.19-38.4 38.4z" />
<glyph unicode="&#xe913;" glyph-name="minus" d="M213.333 448c0 23.565 19.103 42.667 42.667 42.667h512c23.565 0 42.667-19.102 42.667-42.667s-19.102-42.667-42.667-42.667h-512c-23.564 0-42.667 19.102-42.667 42.667z" />
<glyph unicode="&#xe914;" glyph-name="plus" d="M512 746.667c23.565 0 42.667-19.103 42.667-42.667v-213.333h213.333c23.565 0 42.667-19.102 42.667-42.667s-19.102-42.667-42.667-42.667h-213.333v-213.333c0-23.565-19.102-42.667-42.667-42.667s-42.667 19.102-42.667 42.667v213.333h-213.333c-23.564 0-42.667 19.102-42.667 42.667s19.103 42.667 42.667 42.667h213.333v213.333c0 23.564 19.102 42.667 42.667 42.667z" />
<glyph unicode="&#xe915;" glyph-name="download" d="M512 832c23.565 0 42.667-19.103 42.667-42.667v-366.327l55.164 55.164c16.661 16.661 43.678 16.661 60.339 0s16.661-43.678 0-60.339l-128-128c-16.661-16.661-43.678-16.661-60.339 0l-128 128c-16.662 16.661-16.662 43.678 0 60.339s43.677 16.661 60.34 0l55.163-55.164v366.327c0 23.564 19.102 42.667 42.667 42.667zM254.635 405.333h26.965c23.564 0 42.667-19.102 42.667-42.667s-19.102-42.667-42.667-42.667h-25.6c-20.464 0-33.675-0.021-43.786-0.713-9.728-0.666-13.433-1.801-15.208-2.534-10.455-4.331-18.761-12.638-23.091-23.091-0.736-1.775-1.871-5.483-2.535-15.211-0.69-10.108-0.713-23.322-0.713-43.785s0.023-33.677 0.713-43.785c0.664-9.728 1.799-13.436 2.535-15.211 4.331-10.453 12.637-18.761 23.091-23.091 1.775-0.734 5.48-1.869 15.208-2.534 10.111-0.691 23.322-0.713 43.786-0.713h512c20.463 0 33.677 0.021 43.785 0.713 9.728 0.666 13.436 1.801 15.211 2.534 10.453 4.331 18.761 12.638 23.091 23.091 0.734 1.775 1.869 5.483 2.534 15.211 0.691 10.108 0.713 23.322 0.713 43.785s-0.021 33.677-0.713 43.785c-0.666 9.728-1.801 13.436-2.534 15.211-4.331 10.453-12.638 18.761-23.091 23.091-1.775 0.734-5.483 1.869-15.211 2.534-10.108 0.691-23.322 0.713-43.785 0.713h-25.6c-23.565 0-42.667 19.102-42.667 42.667s19.102 42.667 42.667 42.667h26.965c18.714 0 34.863 0 48.23-0.909 14.071-0.964 28.147-3.076 42.057-8.836 31.36-12.988 56.282-37.909 69.269-69.274 5.76-13.905 7.872-27.981 8.836-42.052 0.909-13.367 0.909-29.517 0.909-48.23v-2.731c0-18.714 0-34.863-0.909-48.23-0.964-14.071-3.076-28.147-8.836-42.057-12.988-31.36-37.909-56.282-69.269-69.269-13.909-5.76-27.985-7.872-42.057-8.836-13.367-0.909-29.517-0.909-48.23-0.909h-514.73c-18.716 0-34.864 0-48.23 0.909-14.073 0.964-28.149 3.076-42.055 8.836-31.363 12.988-56.282 37.909-69.273 69.269-5.76 13.909-7.872 27.985-8.832 42.057-0.912 13.367-0.911 29.517-0.911 48.23v2.731c0 18.714-0.001 34.863 0.911 48.23 0.96 14.071 3.072 28.147 8.832 42.057 12.991 31.36 37.91 56.282 69.273 69.269 13.906 5.76 27.983 7.872 42.055 8.836 13.366 0.909 29.514 0.909 48.23 0.909zM682.667 234.667c0 23.565 19.102 42.667 42.667 42.667h0.427c23.565 0 42.667-19.102 42.667-42.667s-19.102-42.667-42.667-42.667h-0.427c-23.565 0-42.667 19.102-42.667 42.667z" />
<glyph unicode="&#xe916;" glyph-name="spacing" d="M476.416 825.905h71.168c22.66 0.001 41.845 0.001 57.574-1.284 16.49-1.347 32.377-4.288 47.517-12.003 22.938-11.687 41.589-30.336 53.277-53.274 7.713-15.142 10.653-31.028 12.003-47.519 1.284-15.73 1.284-34.915 1.284-57.574v-412.502c0-22.66 0-41.845-1.284-57.574-1.349-16.49-4.29-32.377-12.003-47.517-11.688-22.938-30.34-41.585-53.277-53.274-15.141-7.717-31.027-10.657-47.517-12.003-15.729-1.287-34.915-1.287-57.574-1.284h-71.168c-22.66-0.004-41.845-0.004-57.574 1.284-16.49 1.346-32.377 4.286-47.517 12.003-22.939 11.688-41.588 30.336-53.276 53.274-7.715 15.141-10.655 31.027-12.003 47.517-1.285 15.729-1.285 34.915-1.284 57.574v412.503c-0.001 22.659-0.001 41.844 1.284 57.573 1.347 16.491 4.288 32.377 12.003 47.519 11.687 22.938 30.337 41.587 53.276 53.274 15.141 7.715 31.027 10.655 47.517 12.003 15.729 1.285 34.915 1.285 57.574 1.284zM424.799 751.721c-11.97-0.978-17.159-2.688-20.272-4.273-9.172-4.675-16.633-12.135-21.307-21.31-1.587-3.112-3.299-8.301-4.275-20.269-1.013-12.395-1.042-28.57-1.042-53.069v-409.6c0-24.499 0.029-40.675 1.042-53.069 0.976-11.966 2.688-17.156 4.275-20.268 4.674-9.176 12.134-16.636 21.307-21.31 3.112-1.587 8.302-3.295 20.272-4.275 12.394-1.013 28.57-1.039 53.069-1.039h68.264c24.499 0 40.675 0.026 53.069 1.039 11.97 0.98 17.159 2.688 20.272 4.275 9.172 4.674 16.633 12.134 21.307 21.31 1.587 3.112 3.299 8.302 4.275 20.268 1.013 12.394 1.042 28.57 1.042 53.069v409.6c0 24.499-0.029 40.674-1.042 53.069-0.976 11.968-2.688 17.157-4.275 20.269-4.674 9.175-12.134 16.635-21.307 21.31-3.112 1.586-8.302 3.296-20.272 4.273-12.394 1.013-28.57 1.041-53.069 1.041h-68.264c-24.499 0-40.675-0.028-53.069-1.041zM170.666 825.905c20.198 0 36.571-16.373 36.571-36.571v-682.665c0-20.198-16.373-36.571-36.571-36.571s-36.571 16.373-36.571 36.571v682.665c0 20.198 16.374 36.571 36.571 36.571zM853.332 825.905c20.198 0 36.571-16.373 36.571-36.571v-682.665c0-20.198-16.373-36.571-36.571-36.571s-36.571 16.373-36.571 36.571v682.665c0 20.198 16.373 36.571 36.571 36.571z" />
<glyph unicode="&#xe917;" glyph-name="truck" d="M241.748 825.905h199.171c22.656 0 41.841 0.001 57.571-1.284 16.494-1.347 32.377-4.288 47.521-12.003 22.938-11.687 41.585-30.336 53.274-53.274 7.713-15.142 10.653-31.028 12.003-47.519 1.265-15.5 1.284-34.357 1.284-56.587h134.096c11.509 0 22.349-5.42 29.257-14.629l128-170.667c4.747-6.331 7.314-14.029 7.314-21.943v-219.429h6.093c20.198 0 36.571-16.373 36.571-36.571s-16.373-36.571-36.571-36.571h-97.009c-15.532-49.459-61.74-85.332-116.323-85.332s-100.791 35.873-116.323 85.332h-194.019c-15.536-49.459-61.741-85.332-116.325-85.332-56.159 0-103.449 37.972-117.591 89.648-51.672 14.142-89.647 61.429-89.647 117.588v376.919c0 22.659-0.001 41.844 1.284 57.573 1.347 16.491 4.288 32.377 12.003 47.519 11.687 22.938 30.336 41.587 53.274 53.274 15.142 7.715 31.028 10.655 47.519 12.003 15.729 1.285 34.914 1.285 57.573 1.284zM164.129 237.316c17.985 44.888 61.892 76.588 113.204 76.588 54.585 0 100.79-35.873 116.325-85.332h145.77v424.229c0 24.499-0.029 40.674-1.042 53.069-0.976 11.968-2.688 17.157-4.272 20.269-4.677 9.175-12.134 16.635-21.31 21.31-3.112 1.586-8.302 3.296-20.268 4.274-12.398 1.013-28.57 1.041-53.069 1.041h-196.268c-24.499 0-40.674-0.028-53.069-1.041-11.968-0.978-17.157-2.688-20.269-4.274-9.175-4.675-16.635-12.135-21.31-21.31-1.586-3.112-3.296-8.301-4.274-20.269-1.013-12.395-1.041-28.57-1.041-53.069v-375.468c0-16.567 8.262-31.203 20.891-40.016zM612.571 411.429v-138.792c22.338 25.307 55.018 41.267 91.429 41.267 54.583 0 100.791-35.873 116.323-85.332h17.774v182.857h-225.525zM801.525 484.571h-188.954v97.525h115.811l73.143-97.525zM277.333 240.761c-26.93 0-48.762-21.829-48.762-48.761s21.831-48.761 48.762-48.761c26.93 0 48.762 21.829 48.762 48.761s-21.832 48.761-48.762 48.761zM704 240.761c-26.931 0-48.761-21.829-48.761-48.761s21.829-48.761 48.761-48.761c26.931 0 48.761 21.829 48.761 48.761s-21.829 48.761-48.761 48.761z" />
<glyph unicode="&#xe918;" glyph-name="eye" d="M149.857 448c52.724-149.184 195.023-256 362.164-256 167.138 0 309.436 106.812 362.159 256-52.723 149.186-195.021 256-362.163 256-167.138 0-309.435-106.813-362.16-256zM64.179 460.787c59.794 190.374 237.625 328.546 447.838 328.546 210.219 0 388.049-138.174 447.842-328.55 2.615-8.324 2.615-17.246 0-25.57-59.793-190.374-237.623-328.546-447.838-328.546-210.217 0-388.049 138.176-447.842 328.55-2.614 8.324-2.614 17.246 0 25.57zM512 533.333c-47.13 0-85.333-38.204-85.333-85.333s38.204-85.333 85.333-85.333c47.13 0 85.333 38.204 85.333 85.333s-38.204 85.333-85.333 85.333zM341.333 448c0 94.257 76.41 170.667 170.667 170.667 94.255 0 170.667-76.41 170.667-170.667 0-94.255-76.412-170.667-170.667-170.667-94.257 0-170.667 76.412-170.667 170.667z" />
<glyph unicode="&#xe919;" glyph-name="arrow-square" d="M629.333 789.333c0 17.673 14.327 32 32 32h192c17.673 0 32-14.327 32-32v-192c0-17.673-14.327-32-32-32s-32 14.327-32 32v114.745l-286.707-286.705c-12.497-12.497-32.755-12.497-45.252 0s-12.497 32.755 0 45.252l286.703 286.707h-114.743c-17.673 0-32 14.327-32 32zM305.902 778.667h184.765c17.673 0 32-14.327 32-32s-14.327-32-32-32h-183.467c-24.424 0-40.817-0.025-53.441-1.056-12.25-1.001-18.108-2.788-21.972-4.756-10.035-5.113-18.194-13.272-23.308-23.308-1.969-3.864-3.756-9.721-4.756-21.972-1.032-12.624-1.056-29.017-1.056-53.441v-366.933c0-24.422 0.025-40.815 1.056-53.44 1.001-12.25 2.788-18.108 4.756-21.973 5.113-10.035 13.272-18.193 23.308-23.309 3.864-1.967 9.722-3.755 21.972-4.753 12.624-1.033 29.017-1.058 53.441-1.058h366.933c24.422 0 40.815 0.026 53.44 1.058 12.25 0.998 18.108 2.786 21.973 4.753 10.035 5.116 18.193 13.274 23.309 23.309 1.967 3.866 3.755 9.724 4.753 21.973 1.033 12.625 1.058 29.018 1.058 53.44v183.467c0 17.673 14.327 32 32 32s32-14.327 32-32v-184.768c0-22.788 0-41.809-1.267-57.353-1.327-16.209-4.19-31.424-11.52-45.815-11.251-22.076-29.201-40.026-51.277-51.277-14.391-7.33-29.606-10.193-45.815-11.52-15.543-1.267-34.564-1.267-57.353-1.267h-369.534c-22.79 0-41.813 0-57.353 1.267-16.208 1.327-31.426 4.19-45.815 11.52-22.078 11.251-40.028 29.201-51.277 51.277-7.332 14.391-10.195 29.606-11.52 45.815-1.27 15.543-1.269 34.564-1.269 57.357v369.529c0 22.791-0.001 41.814 1.269 57.354 1.324 16.208 4.188 31.426 11.52 45.815 11.249 22.078 29.199 40.028 51.277 51.277 14.39 7.332 29.607 10.195 45.815 11.52 15.54 1.27 34.563 1.269 57.354 1.269z" />
<glyph unicode="&#xe91a;" glyph-name="location" d="M512 789.333c-140.26 0-256-117.295-256-264.533 0-71.676 31.4-139.503 84.82-210.85 45.169-60.326 102.977-119.309 165.309-182.903 1.95-1.993 3.908-3.989 5.871-5.99 1.963 2.001 3.921 3.998 5.871 5.99 62.332 63.595 120.141 122.577 165.308 182.903 53.423 71.347 84.821 139.174 84.821 210.85 0 147.239-115.742 264.533-256 264.533zM170.667 524.8c0 192.085 151.695 349.867 341.333 349.867 189.636 0 341.333-157.782 341.333-349.867 0-97.984-43.268-183.757-101.845-261.995-48.892-65.301-111.475-129.114-173.734-192.589-11.763-11.998-23.514-23.979-35.162-35.959-8.034-8.26-19.068-12.924-30.592-12.924s-22.558 4.663-30.592 12.924c-11.648 11.981-23.398 23.962-35.162 35.959-62.257 63.475-124.842 127.287-173.734 192.589-58.58 78.238-101.846 164.011-101.846 261.995zM512 618.667c-47.13 0-85.333-38.205-85.333-85.333 0-47.13 38.204-85.333 85.333-85.333s85.333 38.204 85.333 85.333c0 47.128-38.204 85.333-85.333 85.333zM341.333 533.333c0 94.257 76.41 170.667 170.667 170.667 94.255 0 170.667-76.41 170.667-170.667 0-94.255-76.412-170.667-170.667-170.667-94.257 0-170.667 76.412-170.667 170.667z" />
<glyph unicode="&#xe91b;" glyph-name="calendar-lines" d="M298.667 874.667c23.564 0 42.667-19.103 42.667-42.667v-42.667h341.333v42.667c0 23.564 19.102 42.667 42.667 42.667s42.667-19.103 42.667-42.667v-42.668c19.584-0.012 36.663-0.133 50.987-1.303 16.87-1.378 33.647-4.421 49.792-12.647 24.085-12.272 43.665-31.853 55.936-55.938 8.226-16.144 11.268-32.922 12.646-49.789 1.306-15.982 1.306-35.384 1.306-57.876v-412.893c0-22.49 0-41.894-1.306-57.873-1.378-16.87-4.42-33.647-12.646-49.792-12.271-24.085-31.851-43.665-55.936-55.936-16.145-8.226-32.922-11.268-49.792-12.646-15.979-1.306-35.383-1.306-57.873-1.306h-498.225c-22.491 0-41.894 0-57.876 1.306-16.868 1.378-33.645 4.42-49.789 12.646-24.084 12.271-43.666 31.851-55.938 55.936-8.226 16.145-11.269 32.922-12.647 49.792-1.306 15.979-1.305 35.383-1.304 57.877v412.887c-0.001 22.492-0.001 41.895 1.304 57.877 1.378 16.868 4.421 33.645 12.647 49.789 12.272 24.085 31.853 43.666 55.938 55.938 16.144 8.226 32.922 11.269 49.789 12.647 14.327 1.17 31.403 1.291 50.988 1.303v42.668c0 23.564 19.103 42.667 42.667 42.667zM264.533 704c-24.599 0-40.483-0.033-52.572-1.021-11.591-0.947-15.888-2.554-17.998-3.629-8.028-4.091-14.555-10.618-18.646-18.646-1.075-2.109-2.683-6.407-3.63-17.998-0.869-10.63-0.999-24.195-1.018-44.039h682.659c-0.017 19.844-0.149 33.409-1.015 44.039-0.947 11.591-2.556 15.889-3.631 17.998-4.092 8.028-10.615 14.555-18.645 18.646-2.112 1.075-6.409 2.682-17.997 3.629-12.092 0.988-27.972 1.021-52.574 1.021h-494.933zM853.333 533.333h-682.667v-332.8c0-24.602 0.033-40.482 1.021-52.574 0.947-11.588 2.554-15.885 3.63-17.997 4.090-8.030 10.618-14.554 18.646-18.645 2.11-1.075 6.407-2.684 17.998-3.631 12.089-0.986 27.973-1.020 52.572-1.020h494.933c24.602 0 40.482 0.034 52.574 1.020 11.588 0.947 15.885 2.556 17.997 3.631 8.030 4.092 14.554 10.615 18.645 18.645 1.075 2.112 2.684 6.409 3.631 17.997 0.986 12.092 1.020 27.972 1.020 52.574v332.8zM256 405.338c0.003 23.565 19.108 42.667 42.673 42.662l426.665-0.060c23.565 0 42.667-19.106 42.662-42.671s-19.11-42.662-42.671-42.662l-426.668 0.060c-23.564 0.004-42.664 19.11-42.661 42.671zM256 234.671c0.003 23.565 19.108 42.667 42.673 42.662l142.223-0.021c23.565 0 42.662-19.106 42.658-42.671 0-23.565-19.106-42.662-42.671-42.662l-142.222 0.021c-23.564 0.004-42.664 19.11-42.661 42.671z" />
<glyph unicode="&#xe91c;" glyph-name="copy" d="M476.57 821.333c-22.793 0-41.813 0.001-57.356-1.269-16.208-1.324-31.426-4.188-45.815-11.52-22.078-11.249-40.027-29.199-51.277-51.277-7.332-14.39-10.195-29.607-11.52-45.815-1.27-15.541-1.269-34.564-1.269-57.354v-3.432h-3.432c-22.79 0-41.813 0.001-57.354-1.269-16.208-1.324-31.426-4.188-45.815-11.52-22.078-11.249-40.028-29.199-51.277-51.277-7.332-14.39-10.195-29.607-11.52-45.815-1.27-15.542-1.269-34.563-1.269-57.356v-241.527c0-22.793-0.001-41.813 1.269-57.357 1.324-16.209 4.188-31.424 11.52-45.815 11.249-22.076 29.199-40.026 51.277-51.277 14.39-7.33 29.607-10.193 45.815-11.52 15.54-1.267 34.563-1.267 57.353-1.267h241.534c22.788 0 41.809 0 57.353 1.267 16.209 1.327 31.424 4.19 45.815 11.52 22.076 11.251 40.026 29.201 51.277 51.277 7.33 14.391 10.193 29.606 11.52 45.815 1.267 15.543 1.267 34.564 1.267 57.353v3.435h3.435c22.788 0 41.809 0 57.353 1.267 16.209 1.327 31.424 4.19 45.815 11.52 22.076 11.251 40.026 29.201 51.277 51.277 7.33 14.391 10.193 29.606 11.52 45.815 1.267 15.543 1.267 34.564 1.267 57.353v241.534c0 22.79 0 41.813-1.267 57.353-1.327 16.208-4.19 31.426-11.52 45.815-11.251 22.078-29.201 40.028-51.277 51.277-14.391 7.332-29.606 10.195-45.815 11.52-15.543 1.27-34.564 1.269-57.357 1.269h-241.527zM309.333 586.667v-174.097c0-22.793-0.001-41.813 1.269-57.357 1.324-16.209 4.188-31.424 11.52-45.815 11.249-22.076 29.199-40.026 51.277-51.277 14.39-7.33 29.607-10.193 45.815-11.52 15.542-1.267 34.563-1.267 57.351-1.267h174.101v-2.133c0-24.422-0.026-40.815-1.058-53.44-0.998-12.25-2.786-18.108-4.753-21.973-5.116-10.035-13.274-18.193-23.309-23.309-3.866-1.967-9.724-3.755-21.973-4.753-12.625-1.033-29.018-1.058-53.44-1.058h-238.933c-24.424 0-40.817 0.026-53.441 1.058-12.25 0.998-18.108 2.786-21.972 4.753-10.035 5.116-18.194 13.274-23.308 23.309-1.969 3.866-3.756 9.724-4.756 21.973-1.032 12.625-1.056 29.018-1.056 53.44v238.933c0 24.422 0.025 40.815 1.056 53.441 1.001 12.25 2.788 18.108 4.756 21.972 5.113 10.035 13.272 18.194 23.308 23.308 3.864 1.969 9.722 3.756 21.972 4.756 12.624 1.032 29.017 1.056 53.441 1.056h2.133zM477.867 309.333c-24.422 0-40.815 0.026-53.441 1.058-12.25 0.998-18.108 2.786-21.972 4.753-10.035 5.116-18.194 13.274-23.308 23.309-1.969 3.866-3.756 9.724-4.756 21.973-1.032 12.625-1.056 29.018-1.056 53.44v238.933c0 24.424 0.025 40.817 1.056 53.441 1.001 12.25 2.788 18.108 4.756 21.972 5.113 10.035 13.272 18.194 23.308 23.308 3.864 1.969 9.722 3.756 21.972 4.756 12.626 1.032 29.018 1.056 53.441 1.056h238.933c24.422 0 40.815-0.025 53.44-1.056 12.25-1.001 18.108-2.788 21.973-4.756 10.035-5.113 18.193-13.272 23.309-23.308 1.967-3.864 3.755-9.722 4.753-21.972 1.033-12.624 1.058-29.017 1.058-53.441v-238.933c0-24.422-0.026-40.815-1.058-53.44-0.998-12.25-2.786-18.108-4.753-21.973-5.116-10.035-13.274-18.193-23.309-23.309-3.866-1.967-9.724-3.755-21.973-4.753-12.625-1.033-29.018-1.058-53.44-1.058h-238.933z" />
<glyph unicode="&#xe91d;" glyph-name="account" d="M512 789.333c-188.513 0-341.333-152.82-341.333-341.333 0-96.273 39.857-183.236 103.969-245.291 37.991 93.807 129.935 159.957 237.364 159.957s199.373-66.15 237.363-159.957c64.115 62.054 103.97 149.018 103.97 245.291 0 188.513-152.819 341.333-341.333 341.333zM677.308 149.295c-18.918 73.613-85.781 128.038-165.308 128.038s-146.388-54.426-165.308-128.038c48.976-27.162 105.336-42.628 165.308-42.628s116.331 15.467 165.308 42.628zM85.333 448c0 235.642 191.025 426.667 426.667 426.667 235.639 0 426.667-191.025 426.667-426.667 0-235.639-191.027-426.667-426.667-426.667-235.642 0-426.667 191.027-426.667 426.667zM512 576c-23.565 0-42.667-19.103-42.667-42.667s19.102-42.667 42.667-42.667c23.565 0 42.667 19.102 42.667 42.667s-19.102 42.667-42.667 42.667zM384 533.333c0 70.692 57.306 128 128 128s128-57.308 128-128c0-70.694-57.306-128-128-128s-128 57.306-128 128z" />
<glyph unicode="&#xe91e;" glyph-name="search" d="M469.334 793.6c167.308 0 302.931-135.628 302.931-302.934 0-83.396-33.7-158.921-88.223-213.7-54.861-55.117-130.801-89.231-214.709-89.231-167.306 0-302.934 135.624-302.934 302.931s135.628 302.934 302.934 302.934zM764.15 251.31c53.094 65.316 84.915 148.618 84.915 239.356 0 209.721-170.010 379.734-379.731 379.734s-379.734-170.012-379.734-379.734c0-209.722 170.012-379.731 379.734-379.731 91.322 0 175.116 32.236 240.621 85.955l158.797-159.944c14.94-15.053 39.255-15.14 54.303-0.195 15.053 14.94 15.14 39.255 0.195 54.303l-159.099 160.256z" />
<glyph unicode="&#xe91f;" glyph-name="menu" d="M96 661.333c0 17.673 14.327 32 32 32h768c17.673 0 32-14.327 32-32s-14.327-32-32-32h-768c-17.673 0-32 14.327-32 32zM96 448c0 17.673 14.327 32 32 32h768c17.673 0 32-14.327 32-32s-14.327-32-32-32h-768c-17.673 0-32 14.327-32 32zM96 234.667c0 17.673 14.327 32 32 32h768c17.673 0 32-14.327 32-32s-14.327-32-32-32h-768c-17.673 0-32 14.327-32 32z" />
<glyph unicode="&#xe920;" glyph-name="close-menu" d="M190.748 769.289c12.497 12.497 32.758 12.497 45.255 0l597.295-597.292c12.497-12.497 12.497-32.759 0-45.257s-32.759-12.497-45.257 0l-597.293 597.293c-12.497 12.497-12.497 32.758 0 45.255zM833.259 769.289c12.497-12.497 12.497-32.758 0-45.255l-597.294-597.293c-12.497-12.497-32.758-12.497-45.255 0s-12.497 32.759 0 45.257l597.292 597.292c12.497 12.497 32.759 12.497 45.257 0z" />
<glyph unicode="&#xe921;" glyph-name="arrow-narrow-right" horiz-adv-x="1755" d="M1216.088 889.815c28.562 28.564 74.876 28.564 103.439 0l390.1-390.095c28.562-28.564 28.562-74.876 0-103.439l-390.1-390.092c-28.562-28.57-74.876-28.57-103.439 0-28.562 28.562-28.562 74.869 0 103.439l265.231 265.23h-1383.796c-40.395 0-73.143 32.748-73.143 73.143s32.747 73.143 73.143 73.143h1383.796l-265.231 265.233c-28.562 28.564-28.562 74.876 0 103.44z" />
<glyph unicode="&#xe922;" glyph-name="icon-briefcase" d="M304.762 704c0 90.89 73.683 164.571 164.57 164.571h85.336c90.887 0 164.571-73.681 164.571-164.571v-6.131c22.788-0.098 42.313-0.465 59.008-1.829 23.607-1.929 44.76-6.032 64.468-16.072 30.965-15.778 56.141-40.954 71.918-71.92 11.257-22.092 15.097-46.134 16.702-73.505 1.236-21.025 1.236-46.442 1.236-76.968v-190.314c0-34.534 0-62.669-1.865-85.508-1.927-23.607-6.031-44.76-16.073-64.468-15.777-30.965-40.953-56.141-71.918-71.918-19.708-10.043-40.861-14.146-64.468-16.073-22.839-1.865-50.973-1.865-85.508-1.865h-361.478c-34.536 0-62.669 0-85.509 1.865-23.606 1.927-44.761 6.031-64.466 16.073-30.966 15.777-56.142 40.953-71.92 71.918-10.040 19.708-14.143 40.861-16.072 64.468-1.866 22.839-1.866 50.97-1.866 85.504v190.321c0 30.523 0 55.94 1.235 76.965 1.608 27.37 5.445 51.412 16.702 73.505 15.778 30.966 40.954 56.142 71.92 71.92 19.705 10.040 40.86 14.143 64.466 16.072 16.697 1.364 36.223 1.731 59.010 1.829v6.131zM377.904 697.905h268.193v6.095c0 50.495-40.934 91.429-91.429 91.429h-85.336c-50.494 0-91.429-40.934-91.429-91.429v-6.095zM251.708 623.139c-19.083-1.559-29.54-4.432-37.216-8.343-17.203-8.765-31.19-22.753-39.956-39.956-3.103-6.089-5.521-13.853-7.172-26.163l140.717-112.574c21.936-17.551 29.051-23.022 36.556-26.854 7.336-3.749 15.145-6.488 23.216-8.144 8.254-1.693 17.229-1.865 45.319-1.865h197.654c28.091 0 37.065 0.172 45.319 1.865 8.071 1.657 15.879 4.396 23.216 8.144 7.504 3.833 14.621 9.304 36.557 26.854l140.716 112.574c-1.649 12.31-4.067 20.074-7.172 26.163-8.766 17.203-22.751 31.191-39.954 39.956-7.676 3.911-18.132 6.784-37.215 8.343-19.511 1.594-44.646 1.622-81.093 1.622h-358.4c-36.447 0-61.582-0.028-81.092-1.622zM859.429 457.242l-97.818-78.256c-0.885-0.706-1.759-1.404-2.622-2.096-18.264-14.621-31.408-25.143-46.351-32.779-13.206-6.744-27.26-11.674-41.787-14.658-16.435-3.372-33.273-3.368-56.667-3.361-1.104 0.004-2.224 0.004-3.357 0.004h-197.654c-1.134 0-2.253 0-3.357-0.004-23.395-0.007-40.232-0.011-56.669 3.361-14.525 2.984-28.581 7.914-41.786 14.658-14.942 7.636-28.087 18.158-46.35 32.779-0.862 0.688-1.735 1.39-2.621 2.096l-97.818 78.256c0-0.234 0-0.472 0-0.709v-187.732c0-36.447 0.029-61.583 1.622-81.093 1.559-19.083 4.432-29.539 8.343-37.215 8.766-17.203 22.753-31.188 39.956-39.954 7.676-3.913 18.133-6.784 37.216-8.342 19.509-1.595 44.645-1.624 81.092-1.624h358.4c36.447 0 61.583 0.029 81.093 1.624 19.083 1.558 29.539 4.429 37.215 8.342 17.203 8.766 31.188 22.751 39.954 39.954 3.913 7.676 6.784 18.132 8.342 37.215 1.595 19.511 1.624 44.646 1.624 81.093v187.732c0 0.238 0 0.475 0 0.709z" />
</font>
</defs>
</svg>
